X
     
 
Lindy ingyenes film letöltö oldal
 
     
Chat
Játék
Játék
Játék 2
Menü
Föoldal
Partnerek
Ékszer shop
Film elözetesek
Porno videok
Erotika
Video
Clippek
Clippek 3
Clippek 2
Shakira
Beyoncé
Letölthetö Clippek
Hard Dance
Letölthetö Clippek 2
FILM ENGLISH LANGUAGE
Film english
Film english
Hasznos linkek
Ezoterikus kövek
Lia Iskola/font> ♥
Sportfogadás
Netes munka
Képtár
Tájkép
Mobil hátterek
Kérések
Ranbir Kapoor videok
Ti kértétek
Régi horror
Programok
program+ serial
Pc
Pc 2
Pc 3
Bud Spencer és Terence Hill életmü
1972-1981
1982-1994
1968-1971
Filmek
Magyar filmek
Krimi
Horror
Zorro
Horror 2
Vigjáték
Kaland / Western
Thriller
Akcio
Zenés filmek
Vegyes
Horror3
Vegyes 3
Vegyes 2
Dráma
Misztikus
Horror 4
Gyermek menü
Gyermek videok 2
Tamagochi
Gyermek lemezek
Ifjusági kaland
Karl May sorozat
Mese
Mesefilmek
Mese 2
Gyermek videok
Mese 3
Mesetar
Mp3
Cd-k
Cd-k 2
Cd-k 3
Cd-k 2010
Számok
Mix albumok
Cd 4
Online mozi
Online mese
Mozi
Avatar
Mozi 2
Online mese 2
Mozi 3
Zene terem
 
 
 
Choose 2010 DVDRip XviD-OlFA


Language: English
1h 22mn / XviD @ 1090 Kbps / 640x268 @ 29.97 fps / MP3 - 128 Kbps - 2 channels @ 44.1 KHz / 741 MB
Genre: Crime / Drama / Horror / Thriller
Director: Marcus Graves
Cast: Katheryn Winnick, Nicholas Tucci, Kevin Pollak.





A.Part1.Rar-DOWNLOAD



A.Part2.Rar-DOWNLOAD



A.Part3.Rar-DOWNLOAD



A.Part4.Rar-DOWNLOAD








One Night With The King DVDRip AC3



Language:English!..
Description: Amazing Movie. The First ?Cinderella? Allegory of the 21st Century, a true story that is inspiring and entertaining. Shot in the palaces of India, the scenes are absolutely amazing. This movie will challenge yourself to be who you were created to be. This film will push you to overcome your fears and make you curious for what your future holds. ?One Night With The King? chronicles the life of the young Jewish girl, Hadassah, who goes on to become the Biblical Esther, the Queen of Persia, and saves the Jewish nation from annihilation at the hands of its arch enemy while winning the heart of the fiercely handsome King Xerxes.





A.Part1.Rar-DOWNLOAD



A.Part2.Rar-DOWNLOAD



A.Part3.Rar-DOWNLOAD



A.Part4.Rar-DOWNLOAD






Fistful Of Brains 2008 StV DVDRiP READNFO XViD-nDn



In the late 1800s, a small town in the mountains of North Carolina gets caught in a vicious battle between two brothers...
Language:English
Size : 699mb - 49 * 14.3mb
Runtime : 1:41:23
Source : DVD
Format : XviD
Video : 608x336
Audio : VBR
Rating : 5.9/10 (39 votes)





A.Part1.Rar-DOWNLOAD



A.Part2.Rar-DOWNLOAD



A.Part3.Rar-DOWNLOAD



A.Part4.Rar-DOWNLOAD






Kosmos 2010 DVDRip XviD-LAP



Kosmos is a thief who works miracles. He arrives in this timeless border town from the wilds weeping, as though a fugitive. No sooner is he there than he rescues a small boy from drowning in the river, and is recognized as a man who works miracles.
XviD 1211kbps 640x272 AR2.35 25.00FPS.( English, French, Spanish, German subs)






A.Part1.Rar-DOWNLOAD



A.Part2.Rar-DOWNLOAD



A.Part3.Rar-DOWNLOAD



A.Part4.Rar-DOWNLOAD





Megamind 2010 SCR REPACK XViD AC3-IMAGiNE


The supervillain Megamind finally conquers his nemesis, the hero Metro Man... but finds his life pointless without a hero to fight.
Video Codec.......:XVID
Audio Codec.......:AC3
Theatre Date......:05/11/10
Runtime...........:1h 35mn
Language..........:ENGLISH
Resolution........:720 x 528
Format : MPEG-4 Visual
Format settings, QPel : No
Duration : 1h 35mn
Bit rate : 1 845 Kbps
Width : 720 pixels
Height : 528 pixels
Audio!..
Format : AC-3
Sampling rate : 48.0 KHz
Bit depth : 16 bits
Stream size : 131 MiB (9%)




A.Part1.Rar-DOWNLOAD



A.Part2.Rar-DOWNLOAD



A.Part3.Rar-DOWNLOAD



A.Part4.Rar-DOWNLOAD






Endhiran-The Robot 2010 DVDRip



A gifted scientist constructs an equally gifted robot, who sets out into the world for the first time with some unexpected and mind-blowing consequences.
Video!..
Width : 720 pixels
Height : 320 pixels
Audio!..
Format : AC-3
Format/Info : Audio Coding 3
ENGLISH SUBS




A.Part1.Rar-DOWNLOAD



A.Part2.Rar-DOWNLOAD



A.Part3.Rar-DOWNLOAD



A.Part4.Rar-DOWNLOAD



A.Part5.Rar-DOWNLOAD



A.Part6.Rar-DOWNLOAD



A.Part7.Rar-DOWNLOAD






RazorBlade City 2010 DVD Xvid


In a city plagued by violence, drugs, and murder, three people fight there way through a gauntlet of the worst and most fascinating characters in the city.
Encoded By .......:Xclusive
Runtime ..........:1:32
Language .........:English
File Size ........:1.35gb
Video.:
Format : MPEG-4 Visual
Format settings, Matrix : Default (H.263)
Muxing mode : Packed bitstream
Codec ID : XVID
Bit rate : 1 901 Kbps
Width : 700 pixels
Height : 386 pixels
Display aspect ratio : 16:9
Stream size : 1.23 GiB (91%)
Audio.:
Format : AC-3
Format/Info : Audio Coding 3
Interleave, duration : 480 ms (14.38 video frames)






A.Part1.Rar -DOWNLOAD



A.Part2.Rar -DOWNLOAD



A.Part3.Rar -DOWNLOAD



A.Part4.Rar -DOWNLOAD






The Tourist 2010 Xvid




Genre: Action, Drama, Thriller

Runtime: 1 hour, 43 minutes

Language: English

IMDb rating: 6.0/10

Director: Florian Henckel von Donnersmarck

Cast: Johnny Depp, Angelina Jolie, Paul Bettany, Timothy Dalton,

Description: Revolves around Frank, an American tourist visiting Italy to mend a broken heart. Elise is an extraordinary woman who deliberately crosses his path.









A.Part1.Rar -DOWNLOAD






A.Part2.Rar -DOWNLOAD








A.Part3.Rar -DOWNLOAD






A.Part3.Rar -DOWNLOAD








Deadly Crossing 2011 DVD - XviD



Genre: Action / Thriller

When an influx of violent and ruthless heroin dealers descend on Seattle, Elijah Kane (STEVEN SEAGAL) leads an elite undercover squad of cops to bring them to justice. Totally disregarding the rulebook, Kane and his crack team of law enforcers storm the city streets to clean out the drug barons by any brutal means necessary.

INFO.:

Codec: XVID

Bitrate: 994


Resolution: 608x336 (see proofs jpg)

Audio: MP3, 128, vbr

Len: 87 mins

Fps: 25.000

Subs: No

Disc: 1

Notes.:

New awaited 2011 Steven Seagal movie.

Born to be a TV Series but now aparentrly deleted and released as a single movie; also knows as "True Justice".


DVD out in Europe (UK) Dec 27 2010.










A.Part1.Rar -DOWNLOAD






A.Part2.Rar -DOWNLOAD








A.Part3.Rar -DOWNLOAD







A.Part4.Rar -DOWNLOAD








Death Race 2 2010 DVDRiP XViD-UNDEAD




Genre.: Action / Sc-Fi / Thriller

Plot.: In 2012, the United States economy collapses.

Unemployment and crime rates shoot through the roof.

The imprisoned population becomes so vast that private


corporations buy the prisons and run them for profit.

INFO.:

New AVI file size.: 745790 Kbytes / 728.31 MB

Total frames: 144301

FPS.: 25,000

Time (Frames/FPS): 01:36:12 (hr:min:sec)

Source compressor.: Xvid 1.2.1

Source resolution.: 608x336

Source aspect ratio.: 1,810


Target size.: 700 MB

Audio: ac3, 277056000 bytes

Audio conversion: no

Subtitles.: no

Cropping.: no

Borders.: no

Logo.: no

Process priority:. Normal











A.Part1.Rar -DOWNLOAD






A.Part2.Rar -DOWNLOAD




A.Part3.Rar -DOWNLOAD




A.Part4.Rar -DOWNLOAD







The Legend Of Secret Pass 2010 HDTV XviD



The legend of secret pass is a charming CGI animated movie inspired by American Indian mythology.

File Info

FileSize: 879M

PlayTime: 01:19:14.521

VideoCount: 1

AudioCount: 1


Video Info

Video 0# Stream

VideoCodec: XVID

VideoWidth: 720 piexs

VideoHeight: 404 piexs

VideoFrameRate: 29.970fps

VideoFrameCount: 142493

VideoBitRate: 1410457

Audio Info


Audio 0# Stream

AudioCodec: MP3

AudioBitRate: 128000

AudioChannels: 2

AudioSampleRate: 48000










A.Part1.Rar -DOWNLOAD







A.Part2.Rar -DOWNLOAD






A.Part3.Rar -DOWNLOAD






A.Part3.Rar -DOWNLOAD







Avatar EXTENDED DVDRip XviD-RUBY




A paraplegic marine dispatched to the moon Pandora on a unique mission becomes torn between following his orders and protecting the world he feels is his home.

Genre ]--[ Action / Adventure / Fantasy / Sci-F

Rating ]--[ 8.3/10 (276,049 votes)

Runtime ]--[ 177 min

Rls.Date ]--[ 03/12/2010

Video ]--[ 943 kbps xvid

Audio ]--[ 192 kbps ac3 cbr

Resolution]--[ 624x352


# Discs ]--[ 2

Subs ]--[ Eng, Pol, Rus, Pt

Extended version with extended footage.

If you want, you can also check the proof folder

to get some good proofs to nuke this one!.








A.Part1.Rar -DOWNLOAD




A.Part2.Rar -DOWNLOAD





A.Part3.Rar -DOWNLOAD




A.Part4.Rar -DOWNLOAD